<?xml version="1.0" encoding="UTF-8"?>
<svg width="100.59" height="100.59" version="1.1" viewBox="0 0 26.613 26.613" xmlns="http://www.w3.org/2000/svg">
 <defs>
  <font id="icomoon" horiz-adv-x="1024" horiz-origin-x="0" horiz-origin-y="0" vert-adv-y="90" vert-origin-x="45" vert-origin-y="90">
   <font-face ascent="960" descent="-64" units-per-em="1024"/>
   <missing-glyph horiz-adv-x="1024"/>
   <glyph d="" horiz-adv-x="512" unicode=" "/>
   <glyph d="M1578.162 920.217c53.174 52.586 139.117 52.586 191.899 0 52.978-52.586 53.371-137.547 0-190.133l-766.81-751.506c-52.978-52.586-138.724-52.586-192.095 0l-766.81 751.506c-52.978 52.39-52.978 137.547 0 190.133 53.174 52.586 139.117 52.586 191.899 0l671.253-616.313 670.665 616.313z" glyph-name="chevron-bold" horiz-adv-x="1815" unicode=""/>
   <glyph d="M879.59 218.256c-78.769 0-137.846-59.077-137.846-137.846s59.077-137.846 137.846-137.846c78.769 0 137.846 59.077 137.846 137.846v0c6.564 72.205-59.077 137.846-137.846 137.846zM879.59 21.333c-32.821 0-59.077 26.256-59.077 59.077s26.256 59.077 59.077 59.077c32.821 0 59.077-26.256 59.077-59.077s-26.256-59.077-59.077-59.077v0zM1102.769 756.513c-6.564 13.128-19.692 19.692-32.821 13.128h-813.949l-39.385 157.538c-6.564 19.692-19.692 32.821-39.385 32.821h-137.846c-26.256 0-39.385-26.256-39.385-45.949s19.692-32.821 39.385-39.385h105.026l137.846-564.513c6.564-19.692 19.692-32.821 39.385-32.821h649.846c19.692 0 32.821 13.128 39.385 32.821l98.462 406.974c6.564 13.128 0 26.256-6.564 39.385zM938.667 362.667h-584.205l-78.769 328.205h741.744l-78.769-328.205zM374.154 218.256c-78.769 0-137.846-59.077-137.846-137.846s59.077-137.846 137.846-137.846c78.769 0 137.846 59.077 137.846 137.846v0c0 72.205-59.077 137.846-137.846 137.846zM374.154 21.333c-32.821 0-59.077 26.256-59.077 59.077s26.256 59.077 59.077 59.077c32.821 0 59.077-26.256 59.077-59.077-6.564-32.821-32.821-59.077-59.077-59.077v0z" glyph-name="cart" horiz-adv-x="1109" unicode=""/>
   <glyph d="M537.6 172.8l211.2-115.2-44.8 256c0 12.8 0 25.6 12.8 38.4l179.2 172.8-243.2 38.4c-12.8 6.4-25.6 12.8-32 25.6l-108.8 224-102.4-224c-6.4-12.8-19.2-19.2-32-25.6l-243.2-38.4 179.2-179.2c6.4-6.4 12.8-19.2 6.4-38.4l-38.4-256 211.2 115.2c12.8 12.8 32 12.8 44.8 6.4v0zM780.8-57.6l-268.8 147.2-268.8-147.2c-12.8-6.4-32-6.4-44.8 0s-19.2 25.6-19.2 44.8l51.2 320-217.6 217.6c-12.8 12.8-12.8 32-12.8 44.8 6.4 12.8 19.2 25.6 32 32l300.8 44.8 134.4 288c12.8 12.8 25.6 25.6 44.8 25.6s32-6.4 38.4-25.6l134.4-288 300.8-44.8c12.8 0 32-12.8 32-32 6.4-12.8 0-32-12.8-44.8l-217.6-224 51.2-320c0-19.2-6.4-32-19.2-44.8-6.4 0-25.6 0-38.4 6.4v0z" glyph-name="star" unicode=""/>
   <glyph d="M0 656.593h948.148v-113.778h-948.148v113.778zM0 49.778h948.148v-113.778h-948.148v113.778zM0 960h948.148v-113.778h-948.148v113.778zM0 353.185h948.148v-113.778h-948.148v113.778zM1061.926 49.778h113.778v-113.778h-113.778v113.778zM1061.926 656.593h113.778v-113.778h-113.778v113.778zM1061.926 960h113.778v-113.778h-113.778v113.778zM1061.926 353.185h113.778v-113.778h-113.778v113.778z" glyph-name="list" horiz-adv-x="1176" unicode=""/>
   <glyph d="M641.542 429.494c123.373 117.205 129.542 314.602 12.337 437.976s-308.434 123.373-431.807 6.169-129.542-308.434-12.337-431.807c6.169-6.169 6.169-6.169 12.337-12.337-141.88-104.867-228.241-271.422-222.072-444.145v-43.181h863.614v43.181c6.169 172.723-74.024 339.277-222.072 444.145zM209.735 651.566c0 123.373 98.699 222.072 222.072 222.072s222.072-98.699 222.072-222.072-98.699-215.904-222.072-215.904v0c-123.373 0-222.072 98.699-222.072 215.904v0zM92.53 28.53c6.169 135.711 80.193 252.916 185.060 333.108l6.169 6.169c92.53-43.181 197.398-43.181 289.928 0l6.169-6.169c111.036-74.024 178.892-197.398 185.060-333.108h-672.386z" glyph-name="user" horiz-adv-x="864" unicode=""/>
   <glyph d="M971.148 28.49l-244.439 251.045c145.342 171.768 125.523 436.026-52.852 581.368s-429.419 125.523-574.761-46.245-125.523-436.026 46.245-581.368c145.342-118.916 350.142-125.523 502.090-19.819l244.439-257.652c13.213-13.213 26.426-19.819 39.639-13.213 13.213 0 26.426 6.606 39.639 13.213 19.819 13.213 26.426 46.245 0 72.671 0 0 0 0 0 0zM409.6 854.297c171.768 0 303.897-138.735 303.897-303.897 0-171.768-138.735-303.897-303.897-303.897-171.768 0-303.897 138.735-303.897 303.897s138.735 303.897 303.897 303.897c0 0 0 0 0 0z" glyph-name="search" horiz-adv-x="991" unicode=""/>
   <glyph d="M1061.236 960l-111.709-102.4 344.436-335.127h-1293.964v-148.945h1293.964l-344.436-335.127 111.709-102.4 418.909 409.6 102.4 102.4z" glyph-name="arrow-right" horiz-adv-x="1583" unicode=""/>
   <glyph d="M844.8 516.267l-307.2-315.733v759.467h-136.533v-759.467l-307.2 315.733-93.867-102.4 469.333-477.867 469.333 477.867z" glyph-name="arrow-down" horiz-adv-x="939" unicode=""/>
   <glyph d="M0 499.2v-563.2h1024v1024h-1024v-460.8zM563.2 857.6h358.4v-358.4h-358.4v358.4zM102.4 857.6h358.4v-358.4h-358.4v358.4zM102.4 396.8h819.2v-358.4h-819.2v358.4z" glyph-name="material" unicode=""/>
   <glyph d="M102.4 192h-102.4v-256h256v102.4h-153.6v153.6zM921.6 38.4h-153.6v-102.4h256v256h-102.4v-153.6zM0 960v-256h102.4v153.6h153.6v102.4h-256zM768 960v-102.4h153.6v-153.6h102.4v256h-256z" glyph-name="square" unicode=""/>
   <glyph d="M0 960h972.8v-102.4h-972.8v102.4zM0 38.4h972.8v-102.4h-972.8v102.4zM0 499.2h972.8v-102.4h-972.8v102.4z" glyph-name="floors" horiz-adv-x="973" unicode=""/>
   <glyph d="M920.913 960v0l-920.913-920.913 96.215-103.087 824.698 831.57 831.57-831.57 96.215 103.087-927.785 920.913z" glyph-name="chevron" horiz-adv-x="1849" unicode=""/>
   <glyph d="M1126.4 294.4v665.6h-102.4v-665.6h-768v665.6h-102.4v-665.6h-153.6v-102.4h153.6v-256h102.4v256h768v-256h102.4v256h153.6v102.4z" glyph-name="cokol" horiz-adv-x="1280" unicode=""/>
   <glyph d="M989.867 960h-424.77c-7.585 0-18.963-3.793-22.756-11.378l-530.963-530.963c-15.17-15.17-15.17-34.133 0-49.304 0 0 0 0 0 0l424.77-424.77c7.585-7.585 15.17-11.378 22.756-11.378s18.963 3.793 22.756 11.378l530.963 530.963c7.585 7.585 11.378 15.17 11.378 22.756v428.563c3.793 18.963-15.17 34.133-34.133 34.133 0 0 0 0 0 0zM955.733 891.733v-375.467l-496.83-496.83-375.467 375.467 496.83 496.83h375.467zM777.481 603.496c60.681 0 109.985 53.096 106.193 113.778 0 26.548-11.378 56.889-30.341 75.852v0c-41.719 41.719-113.778 41.719-155.496 0s-41.719-113.778 0-155.496c18.963-22.756 49.304-34.133 79.644-34.133zM804.030 683.141c-15.17-15.17-37.926-18.963-53.096-3.793 0 0-3.793 3.793-3.793 3.793-15.17 15.17-15.17 41.719 0 56.889s41.719 15.17 56.889 0c18.963-15.17 18.963-37.926 0-56.889z" glyph-name="tag" horiz-adv-x="1028" unicode=""/>
   <glyph d="M1363.537 960h-1325.811c-21.558 0-37.726-16.168-37.726-37.726v-943.158c0-26.947 16.168-43.116 37.726-43.116h1320.421c21.558 0 37.726 16.168 37.726 37.726v948.547c5.389 21.558-10.779 37.726-32.337 37.726zM1298.863 16.842h-1196.463l404.211 404.211 167.074-167.074c16.168-16.168 37.726-16.168 53.895 0l167.074 167.074 404.211-404.211zM80.842 846.821l371.874-371.874-371.874-371.874v743.747zM700.632 334.821l-544.337 544.337h1094.063l-549.726-544.337zM1320.421 846.821v-743.747l-366.484 371.874 366.484 371.874z" glyph-name="mail" horiz-adv-x="1401" unicode=""/>
   <glyph d="M1389.411 598.838l-471.635 352.664c-12.747 8.498-29.743 8.498-42.49 0l-76.481-59.485-76.481 59.485c-12.747 8.498-29.743 8.498-42.49 0l-76.481-59.485-76.481 55.237c-12.747 8.498-29.743 8.498-42.49 0l-471.635-348.415c-8.498-8.498-12.747-16.996-12.747-29.743v-594.855c0-21.245 16.996-33.992 33.992-33.992 0 0 0 0 0 0h1329.925c21.245 0 33.992 16.996 33.992 33.992v0 594.855c4.249 12.747 0 21.245-8.498 29.743zM565.112 8.232h-114.722v254.938h114.722v-254.938zM943.27 8.232h-305.925v288.929c0 21.245-16.996 33.992-33.992 33.992h-191.203c-21.245 0-33.992-16.996-33.992-33.992v-288.929h-305.925v543.867l437.643 327.17 433.394-327.17v-543.867zM1134.473 8.232h-123.22v560.863c0 12.747-4.249 21.245-12.747 29.743l-335.668 254.938 38.241 29.743 437.643-327.17-4.249-548.116zM1334.174 8.232h-127.469v560.863c0 12.747-4.249 21.245-12.747 29.743l-335.668 254.938 42.49 29.743 433.394-331.419v-543.867z" glyph-name="homes" horiz-adv-x="1402" unicode=""/>
   <glyph d="M894.433 558.759v0l-697.992 384.522c-41.796 25.078-91.951 25.078-133.747 0-37.616-25.078-62.694-66.873-62.694-108.669v-773.224c0-45.976 25.078-87.771 62.694-108.669 41.796-25.078 91.951-25.078 133.747 0l547.527 300.931h4.18l146.286 79.412c62.694 33.437 83.592 108.669 50.155 171.363-8.359 25.078-29.257 41.796-50.155 54.335zM71.053 61.388v769.045c0 4.18 0 4.18 0 8.359l405.42-376.163-405.42-401.241zM530.808 516.963l-397.061 367.804c8.359 0 20.898-4.18 29.257-8.359l468.114-263.314-100.31-96.131zM534.988 416.653l133.747-121.208-505.731-280.033c-12.539-4.18-25.078-8.359-37.616-8.359l409.6 409.6zM860.996 399.935v0l-125.388-71.053-150.465 137.927 112.849 112.849 158.824-91.951c16.718-8.359 29.257-25.078 29.257-45.976 0-16.718-12.539-33.437-25.078-41.796v0z" glyph-name="gplay-bordered" horiz-adv-x="961" unicode=""/>
   <glyph d="M870.065 638.745c-46.85 66.928-120.471 100.392-200.784 107.085-93.699 0-133.856-46.85-200.784-46.85-13.386 0-33.464 0-46.85 6.693 53.542 6.693 107.085 33.464 140.549 80.314 40.157 53.542 60.235 113.778 53.542 174.013-66.928-6.693-120.471-40.157-160.627-87.007s-60.235-100.392-53.542-160.627c-40.157 20.078-87.007 33.464-133.856 33.464-93.699-6.693-174.013-53.542-220.863-133.856-73.621-120.471-60.235-341.333 60.235-528.732 46.85-66.928 100.392-147.242 180.706-147.242s87.007 40.157 180.706 40.157 107.085-46.85 180.706-46.85 140.549 87.007 180.706 153.935c26.771 40.157 46.85 80.314 66.928 127.163-120.471 46.85-180.706 180.706-133.856 301.176 20.078 60.235 60.235 100.392 107.085 127.163z" glyph-name="apple" horiz-adv-x="897" unicode=""/>
   <glyph d="M872.591 238.817c-3.984 7.969-11.953 15.938-19.922 19.922-63.751 23.907-107.58 83.673-111.564 151.409s27.891 131.486 87.658 163.362c7.969 3.984 15.938 15.938 15.938 23.907 3.984 11.953 0 19.922-7.969 27.891-47.813 67.735-127.502 107.58-207.191 111.564-15.938 0-31.875 0-47.813-3.984 3.984 3.984 7.969 7.969 11.953 15.938 39.844 51.798 59.767 115.549 51.798 183.284v0c0 15.938-15.938 27.891-35.86 27.891-67.735-7.969-127.502-39.844-167.346-91.642-35.86-43.829-55.782-99.611-55.782-155.393v0c-35.86 15.938-75.704 23.907-111.564 23.907-95.626-3.984-179.3-55.782-227.113-139.455-79.689-127.502-55.782-342.661 55.782-517.977 43.829-67.735 103.595-147.424 191.253-147.424v0c27.891 0 55.782 7.969 79.689 19.922v0c23.907 11.953 51.798 19.922 79.689 19.922s55.782-7.969 79.689-19.922c23.907-11.953 51.798-19.922 83.673-19.922 83.673 0 143.44 79.689 195.237 155.393 23.907 35.86 47.813 79.689 63.751 119.533 0 11.953 0 19.922-3.984 31.875zM669.385 406.163c3.984-83.673 51.798-159.377 123.518-199.222-11.953-27.891-27.891-55.782-43.829-79.689-35.86-55.782-83.673-119.533-135.471-119.533-19.922 0-35.86 3.984-51.798 15.938-31.875 15.938-71.72 23.907-107.58 23.907s-75.704-7.969-107.58-23.907c-15.938-7.969-35.86-11.953-51.798-15.938-55.782-3.984-99.611 59.767-135.471 111.564-107.58 167.346-107.58 354.615-55.782 438.288 35.86 59.767 95.626 99.611 167.346 103.595 31.875 0 59.767-7.969 87.658-19.922v0c27.891-11.953 59.767-19.922 91.642-19.922 27.891 0 59.767 7.969 83.673 19.922v0c27.891 11.953 59.767 19.922 91.642 19.922 51.798 0 95.626-19.922 131.486-55.782-59.767-47.813-95.626-123.518-87.658-199.222v0zM537.899 792.654v0c-19.922-27.891-47.813-47.813-79.689-55.782 3.984 31.875 19.922 63.751 39.844 87.658s47.813 43.829 79.689 55.782c-7.969-31.875-19.922-63.751-39.844-87.658v0z" glyph-name="apple-bordered" horiz-adv-x="873" unicode=""/>
   <glyph d="M686.613 616.694l-585.988 325.549c-11.838 11.838-29.595 17.757-41.434 17.757l485.364-485.364 142.058 142.058zM59.191-64c11.838 0 29.595 5.919 41.434 17.757l585.988 331.468-142.058 136.139-485.364-485.364zM899.699 492.393l-183.491 106.543-147.977-153.896 147.977-147.977 183.491 106.543c0 0 29.595 17.757 29.595 47.353s-29.595 41.434-29.595 41.434zM23.676 948.162c-17.757-11.838-23.676-29.595-23.676-47.353v-905.618c0-17.757 5.919-35.514 23.676-47.353l497.202 503.121-497.202 497.202z" glyph-name="gplay" horiz-adv-x="929" unicode=""/>
   <glyph d="M1682.286 649.143c54.857 64 91.429 128 118.857 201.143 18.286 45.714 0 73.143-45.714 73.143-9.143 0-18.286 0-27.429 0h-283.429c-27.429 0-64-18.286-73.143-45.714-18.286-45.714-36.571-82.286-54.857-128-45.714-91.429-100.571-182.857-164.571-256-18.286-18.286-36.571-36.571-54.857-27.429s-45.714 64-45.714 82.286v329.143c-9.143 45.714-18.286 73.143-64 82.286h-301.714c-27.429 0-54.857-18.286-73.143-36.571s-18.286-27.429 9.143-36.571c45.714-9.143 82.286-45.714 82.286-91.429 9.143-82.286 9.143-155.429 0-237.714 0-27.429-9.143-45.714-18.286-73.143 0-18.286-27.429-36.571-45.714-27.429-9.143 0-18.286 9.143-18.286 9.143-27.429 27.429-45.714 45.714-64 73.143-73.143 109.714-128 219.429-173.714 329.143-9.143 36.571-36.571 54.857-73.143 54.857-82.286 0-173.714 0-256 0-54.857 0-64-27.429-45.714-73.143 91.429-210.286 201.143-411.429 329.143-603.429 64-100.571 155.429-173.714 256-237.714 118.857-64 246.857-91.429 374.857-82.286 64 0 82.286 18.286 82.286 82.286 0 45.714 9.143 82.286 27.429 128 9.143 27.429 45.714 45.714 73.143 27.429 9.143 0 9.143-9.143 18.286-9.143 18.286-9.143 36.571-18.286 45.714-36.571 36.571-36.571 73.143-82.286 100.571-118.857 45.714-45.714 100.571-73.143 164.571-73.143h265.143c45.714 0 64 54.857 36.571 100.571-18.286 36.571-36.571 64-64 91.429-54.857 64-118.857 128-173.714 182.857s-54.857 82.286-18.286 146.286c54.857 73.143 109.714 137.143 155.429 201.143z" glyph-name="vk" horiz-adv-x="1801" unicode=""/>
   <glyph d="M638.42 448l372.938-372.938v745.877l-372.938-372.938zM929.185 271.012l-176.988 176.988 176.988 176.988v-353.975zM0 75.062l372.938 372.938-372.938 372.938v-745.877zM82.173 624.988l176.988-176.988-176.988-176.988v353.975zM562.568-13.432c0-27.928-25.47-50.568-56.889-50.568s-56.889 22.64-56.889 50.568c0 27.928 25.47 50.568 56.889 50.568s56.889-22.64 56.889-50.568zM505.679 226.765c-31.605 0-56.889-25.284-56.889-56.889s25.284-56.889 56.889-56.889c31.605 0 56.889 25.284 56.889 56.889 0 0 0 0 0 0 0 31.605-25.284 56.889-56.889 56.889zM505.679 410.074c-31.605 0-50.568-25.284-50.568-56.889s25.284-50.568 56.889-50.568c31.605 0 50.568 25.284 50.568 50.568 0 31.605-25.284 56.889-56.889 56.889zM562.568 536.494c0-31.419-25.47-56.889-56.889-56.889s-56.889 25.47-56.889 56.889c0 31.419 25.47 56.889 56.889 56.889s56.889-25.47 56.889-56.889zM562.568 719.802c0-31.419-25.47-56.889-56.889-56.889s-56.889 25.47-56.889 56.889c0 31.419 25.47 56.889 56.889 56.889s56.889-25.47 56.889-56.889zM562.568 903.111c0-31.419-25.47-56.889-56.889-56.889s-56.889 25.47-56.889 56.889c0 31.419 25.47 56.889 56.889 56.889s56.889-25.47 56.889-56.889z" glyph-name="resize" horiz-adv-x="1011" unicode=""/>
   <glyph d="M544 960c-262.4 0-480-211.2-486.4-473.6 0-89.6 19.2-172.8 64-249.6l-121.6-300.8 320 121.6c64-38.4 147.2-57.6 224-57.6 262.4 0 480 217.6 480 480s-211.2 480-480 480v0zM236.8 249.6v0c-51.2 70.4-76.8 147.2-76.8 230.4 0 211.2 172.8 384 384 384s384-172.8 384-384-172.8-384-384-384c-76.8 0-147.2 19.2-211.2 64h-6.4l-166.4-70.4 76.8 160zM537.6 358.4c-12.8 0-25.6 0-38.4-12.8-19.2-19.2-19.2-44.8 0-64 0 0 0 0 0 0 12.8-6.4 25.6-12.8 38.4-12.8s25.6 6.4 38.4 12.8c19.2 19.2 19.2 44.8 0 64 0 0 0 0 0 0-6.4 12.8-25.6 12.8-38.4 12.8zM518.4 601.6c6.4 6.4 19.2 12.8 25.6 12.8 25.6 0 38.4-12.8 38.4-44.8 0-12.8-6.4-25.6-12.8-32s-19.2-19.2-32-32c-12.8-6.4-25.6-25.6-32-38.4-6.4-19.2-6.4-44.8-6.4-64h83.2c0 12.8 0 25.6 6.4 38.4 0 6.4 6.4 19.2 19.2 25.6l32 25.6c12.8 12.8 25.6 25.6 32 38.4s12.8 25.6 6.4 44.8-12.8 64-32 83.2c-32 25.6-70.4 38.4-102.4 32-38.4 0-70.4-6.4-102.4-32-25.6-19.2-38.4-51.2-32-89.6h96c0 12.8 0 25.6 12.8 32z" glyph-name="question" unicode=""/>
   <glyph d="M1005.714 859.429l-100.571 100.571-393.143-402.286-9.143 9.143-9.143-9.143-393.143 402.286-100.571-100.571 393.143-402.286-393.143-420.571 100.571-100.571 393.143 411.429 9.143-9.143 9.143 9.143 393.143-411.429 100.571 100.571-393.143 420.571z" glyph-name="close" horiz-adv-x="1006" unicode=""/>
   <glyph d="M308.916 736.894c0 22.883 17.162 45.765 40.045 45.765 0 0 5.721 0 5.721 0h114.413v177.341h-154.458c-108.693 5.721-205.944-74.369-211.665-183.061 0-11.441 0-22.883 0-34.324v-114.413h-102.972v-183.061h102.972v-509.14h211.665v509.14h143.017l17.162 183.061h-165.899v108.693z" glyph-name="fb" horiz-adv-x="469" unicode=""/>
   <glyph d="M512 960l-512-192v-640l512-192 512 192v640l-512 192zM473.6 38.4l-390.4 147.2v499.2l390.4-147.2v-499.2zM153.6 742.4l358.4 134.4 358.4-134.4-358.4-134.4-358.4 134.4zM940.8 179.2l-390.4-147.2v505.6l390.4 147.2v-505.6z" glyph-name="box" unicode=""/>
   <glyph d="M1421.241 818.759c8.828 0 8.828 0 0 0-17.655 61.793-70.621 105.931-132.414 105.931h8.828c-379.586 44.138-768 44.138-1147.586 0h8.828c-61.793 0-114.759-35.31-132.414-97.103v-8.828c0-8.828 0-8.828 0-17.655-17.655-114.759-26.483-238.345-26.483-353.103s8.828-238.345 26.483-353.103c0-8.828 0-8.828 0-17.655v-8.828c17.655-52.966 70.621-97.103 132.414-97.103h-8.828c194.207-26.483 388.414-35.31 573.793-35.31 194.207 0 388.414 17.655 573.793 35.31h-8.828c61.793 0 114.759 44.138 132.414 105.931 0 0 0 8.828 0 8.828 0 8.828 0 8.828 0 17.655 17.655 114.759 26.483 238.345 26.483 353.103s-8.828 238.345-26.483 353.103c0 0 0 0 0 8.828zM935.724 421.517l-291.31-220.69c-8.828 0-17.655-8.828-17.655-8.828-8.828 0-8.828 0-17.655 0-17.655 8.828-17.655 26.483-17.655 35.31v432.552c0 17.655 17.655 35.31 35.31 35.31 8.828 0 8.828 0 17.655 0l300.138-220.69c8.828-8.828 17.655-35.31-8.828-52.966 8.828 0 8.828 0 0 0v0z" glyph-name="youtube" horiz-adv-x="1448" unicode=""/>
   <glyph d="M0 960h102.4v-1024h-102.4v1024zM920.73 960h102.4v-1024h-102.4v1024zM0 960h1023.13v-102.4h-1023.13v102.4zM0 38.4h1023.13v-102.4h-1023.13v102.4z" glyph-name="big-list-view" horiz-adv-x="1023" unicode=""/>
   <glyph d="M0 960h102.4v-460.691h-102.4v460.691zM358.074 960h102.4v-460.691h-102.4v460.691zM0 960h460.474v-102.4h-460.474v102.4zM0 601.709h460.474v-102.4h-460.474v102.4zM562.656 960h102.4v-460.691h-102.4v460.691zM920.73 960h102.4v-460.691h-102.4v460.691zM562.656 960h460.474v-102.4h-460.474v102.4zM562.656 601.709h460.474v-102.4h-460.474v102.4zM0 396.909h102.4v-460.909h-102.4v460.909zM358.074 396.909h102.4v-460.909h-102.4v460.909zM0 396.909h460.474v-102.4h-460.474v102.4zM0 38.4h460.474v-102.4h-460.474v102.4zM562.656 396.909h102.4v-460.909h-102.4v460.909zM920.73 396.909h102.4v-460.909h-102.4v460.909zM562.656 396.909h460.474v-102.4h-460.474v102.4zM562.656 38.4h460.474v-102.4h-460.474v102.4z" glyph-name="cards" horiz-adv-x="1023" unicode=""/>
   <glyph d="M0 960h102.4v-460.691h-102.4v460.691zM920.73 960h102.4v-460.691h-102.4v460.691zM0 960h1023.13v-102.4h-1023.13v102.4zM0 601.709h1023.13v-102.4h-1023.13v102.4zM0 396.909h102.4v-460.909h-102.4v460.909zM920.73 396.909h102.4v-460.909h-102.4v460.909zM0 396.909h1023.13v-102.4h-1023.13v102.4zM0 38.4h1023.13v-102.4h-1023.13v102.4z" glyph-name="list-view" horiz-adv-x="1023" unicode=""/>
   <glyph d="M1148.169 942.281c-10.595 10.134-24.714 16.66-40.342 17.564l-0.171 0.008c-2.521 0-5.078 0-7.708 0-7.47-0.487-14.421-2.147-20.858-4.799l0.437 0.16-1040.22-404.142c-23.461-8.943-39.825-31.255-39.825-57.389 0-26.435 16.743-48.959 40.204-57.547l0.425-0.136 264.704-98.816 74.121-274.348c5.636-19.947 20.423-35.563 39.418-42.242l0.437-0.134c6.388-2.316 13.76-3.656 21.446-3.656 13.849 0 26.683 4.349 37.21 11.756l-0.206-0.137 141.959 99.766 273.617-181.194c9.967-6.661 22.226-10.631 35.411-10.631 0.034 0 0.068 0 0.102 0h-0.005c8.755 0.010 17.103 1.74 24.728 4.871l-0.435-0.158c19.336 7.861 33.599 24.635 37.813 45.080l0.069 0.401 175.349 899.21c0.796 3.754 1.252 8.067 1.252 12.487 0 1.558-0.057 3.102-0.168 4.631l0.012-0.205c-1.035 13.94-6.661 26.398-15.354 36.037l0.048-0.054zM431.614 352.306l-12.713 47.015c-5.53 19.504-19.774 34.854-38.147 41.795l-0.43 0.143-143.53 53.591 590.816 229.488zM477.862 181.195l-13.334 49.317 42.997-28.458zM884.050 102.032l-229.926 152.261-10.411-14.978 9.206 15.745-83.473 55.308 435.047 408.709z" glyph-name="telegram-bordered" horiz-adv-x="1167" unicode=""/>
   <glyph d="M565.333 447.999c-32 0-96-64-224-64s-192 64-224 64c-35.2 0-64-28.8-64-64 0-32 19.2-48 32-54.4 38.4-22.4 160-73.6 160-73.6l-137.6-172.8c0 0-25.6-28.8-25.6-51.2 0-35.2 28.8-64 64-64 32 0 48 22.4 48 22.4l147.2 169.6 144-169.6c0 0 16-22.4 48-22.4 35.2 0 64 28.8 64 64 0 19.2-25.6 51.2-25.6 51.2l-134.4 172.8c0 0 121.6 51.2 160 73.6 12.8 9.6 32 22.4 32 54.4 0 35.2-28.8 64-64 64zM347.083 940.206c-124.8 0-224-99.2-224-224s99.2-224 224-224c124.8 0 224 99.2 224 224s-99.2 224-224 224zM347.083 604.206c-60.8 0-112 51.2-112 112s51.2 112 112 112c60.8 0 112-51.2 112-112s-51.2-112-112-112z" glyph-name="ok" horiz-adv-x="683" unicode=""/>
   <glyph d="M877.714 862.476v97.524h-146.286v-97.524h-731.429v-146.286h731.429v-97.524h146.286v97.524h195.048v146.286zM390.095 618.667h-146.286v-97.524h-243.81v-146.286h243.81v-97.524h146.286v97.524h682.667v146.286h-682.667zM682.667 277.333h-146.286v-97.524h-536.381v-146.286h536.381v-97.524h146.286v97.524h390.095v146.286h-390.095z" glyph-name="equalizer" horiz-adv-x="1073" unicode=""/>
   <glyph d="M861.474 860.148c-25.509 23.358-128.314 98.041-357.282 99.117 0 0-270.152 16.289-401.847-104.496-73.301-73.301-99.117-180.562-101.729-313.64-2.766-133.078-6.3-382.177 234.039-449.792 0 0 0.154 0 0.154 0l-0.154-103.112c0 0-1.537-41.798 25.97-50.25 33.193-10.296 52.709 21.36 84.518 55.629 17.365 18.748 41.491 46.408 59.624 67.461 164.273-13.83 290.743 17.826 305.035 22.436 33.193 10.757 220.977 34.883 251.404 283.982 31.502 256.782-15.367 419.365-99.732 492.666zM889.288 385.923c-25.817-208.069-178.103-221.285-206.071-230.197-11.986-3.842-122.936-31.502-262.468-22.282 0 0-104.035-125.395-136.459-158.126-5.071-5.071-11.064-7.222-15.060-6.147-5.532 1.383-7.069 7.991-7.069 17.672 0.154 13.83 0.922 171.342 0.922 171.342-0.154 0-0.154 0 0 0-203.152 56.397-191.319 268.615-189.014 379.718s23.204 202.076 85.133 263.237c111.411 100.807 340.84 85.748 340.84 85.748 193.778-0.922 286.594-59.163 308.108-78.679 71.303-61.314 107.723-207.762 81.138-422.285zM523.554 373.322c0 0 18.287-1.537 27.968 10.603l19.055 23.973c9.22 11.986 31.502 19.516 53.323 7.376 12.14-6.915 33.961-20.284 47.484-30.273 14.445-10.603 44.103-35.344 44.103-35.344 14.138-11.833 17.365-29.351 7.837-47.791 0-0.154-0.154-0.307-0.154-0.307-9.835-17.365-23.050-33.807-39.801-49.021-0.154-0.154-0.154-0.154-0.307-0.307-13.677-11.372-27.2-17.979-40.415-19.516-1.537-0.307-3.534-0.461-5.839-0.307-5.839 0-11.525 0.768-17.211 2.612l-0.461 0.615c-20.438 5.686-54.399 20.131-111.103 51.326-36.881 20.284-67.461 41.030-93.278 61.622-13.677 10.757-27.661 23.050-41.952 37.188-0.461 0.461-0.922 0.922-1.383 1.383s-0.922 0.922-1.383 1.383v0c0 0 0 0 0 0-0.461 0.461-0.922 0.922-1.383 1.383s-0.922 0.922-1.383 1.383c-14.138 14.291-26.431 28.275-37.188 41.952-20.592 25.817-41.337 56.551-61.622 93.278-31.195 56.704-45.64 90.665-51.326 111.103l-0.615 0.461c-1.844 5.686-2.766 11.372-2.612 17.211-0.154 2.305 0 4.303 0.307 5.839 1.537 13.216 8.145 26.739 19.516 40.415 0.154 0.154 0.154 0.154 0.307 0.307 15.213 16.75 31.502 29.966 49.021 39.801 0.154 0 0.307 0.154 0.307 0.154 18.44 9.528 35.959 6.3 47.791-7.837 0.154-0.154 24.741-29.658 35.344-44.103 9.989-13.677 23.511-35.344 30.273-47.484 12.14-21.821 4.61-44.103-7.376-53.323l-23.973-19.055c-12.14-9.835-10.603-27.968-10.603-27.968s35.651-134.768 168.73-168.73z" glyph-name="purple_Purple_icon" horiz-adv-x="971" unicode=""/>
   <glyph d="M203.79 355.602v-83.538h-139.23v-130.37h139.23v-136.698h180.999v136.698h321.494v130.37h-321.494v83.538h199.985c94.929 0 169.607 25.315 225.299 74.678s83.538 113.915 83.538 193.656c0 79.741-27.846 143.027-83.538 192.39s-130.37 74.678-225.299 74.678h-380.983v-405.032h-139.23v-130.37zM384.789 731.523h175.936c92.398 0 149.356-43.035 149.356-122.775 0-77.209-56.958-122.775-149.356-122.775h-175.936z" glyph-name="r-2" horiz-adv-x="958" unicode=""/>
   <glyph d="M512-51.2c-282.77 0-512 229.23-512 512s229.23 512 512 512v0c282.77 0 512-229.23 512-512s-229.23-512-512-512v0zM614.4 614.4c0-14.336-10.752-40.96-21.504-51.2l-80.896-80.896c-29.184-29.696-51.2-81.92-51.2-123.904v-51.2h102.4v51.2c0 14.848 10.752 40.96 21.504 51.2l80.896 80.896c29.184 29.696 51.2 81.92 51.2 123.904 0 113.108-91.692 204.8-204.8 204.8s-204.8-91.692-204.8-204.8v0h102.4c0 56.554 45.846 102.4 102.4 102.4s102.4-45.846 102.4-102.4v0zM460.8 204.8v-102.4h102.4v102.4h-102.4z" glyph-name="question1" unicode=""/>
   <glyph d="M704 320c-64-64-64-128-128-128s-128 64-192 128-128 128-128 192 64 64 128 128-128 256-192 256-192-192-192-192c0-128 131.5-387.5 256-512s384-256 512-256c0 0 192 128 192 192s-192 256-256 192z" glyph-name="phone" unicode=""/>
   <glyph d="M512 896c-141.384 0-269.376-57.32-362.032-149.978l-149.968 149.978v-384h384l-143.532 143.522c69.496 69.492 165.492 112.478 271.532 112.478 212.068 0 384-171.924 384-384 0-114.696-50.292-217.636-130.018-288l84.666-96c106.302 93.816 173.352 231.076 173.352 384 0 282.77-229.23 512-512 512z" glyph-name="undo" unicode=""/>
   <glyph d="M0 384c0-152.924 67.048-290.184 173.35-384l84.666 96c-79.726 70.364-130.016 173.304-130.016 288 0 212.076 171.93 384 384 384 106.042 0 202.038-42.986 271.53-112.478l-143.53-143.522h384v384l-149.97-149.978c-92.654 92.658-220.644 149.978-362.030 149.978-282.77 0-512-229.23-512-512z" glyph-name="redo" unicode=""/>
   <glyph d="M512 867.8c136.8 0 153-0.6 206.8-3 50-2.2 77-10.6 95-17.6 23.8-9.2 41-20.4 58.8-38.2 18-18 29-35 38.4-58.8 7-18 15.4-45.2 17.6-95 2.4-54 3-70.2 3-206.8s-0.6-153-3-206.8c-2.2-50-10.6-77-17.6-95-9.2-23.8-20.4-41-38.2-58.8-18-18-35-29-58.8-38.4-18-7-45.2-15.4-95-17.6-54-2.4-70.2-3-206.8-3s-153 0.6-206.8 3c-50 2.2-77 10.6-95 17.6-23.8 9.2-41 20.4-58.8 38.2-18 18-29 35-38.4 58.8-7 18-15.4 45.2-17.6 95-2.4 54-3 70.2-3 206.8s0.6 153 3 206.8c2.2 50 10.6 77 17.6 95 9.2 23.8 20.4 41 38.2 58.8 18 18 35 29 58.8 38.4 18 7 45.2 15.4 95 17.6 53.8 2.4 70 3 206.8 3zM512 960c-139 0-156.4-0.6-211-3-54.4-2.4-91.8-11.2-124.2-23.8-33.8-13.2-62.4-30.6-90.8-59.2-28.6-28.4-46-57-59.2-90.6-12.6-32.6-21.4-69.8-23.8-124.2-2.4-54.8-3-72.2-3-211.2s0.6-156.4 3-211c2.4-54.4 11.2-91.8 23.8-124.2 13.2-33.8 30.6-62.4 59.2-90.8 28.4-28.4 57-46 90.6-59 32.6-12.6 69.8-21.4 124.2-23.8 54.6-2.4 72-3 211-3s156.4 0.6 211 3c54.4 2.4 91.8 11.2 124.2 23.8 33.6 13 62.2 30.6 90.6 59s46 57 59 90.6c12.6 32.6 21.4 69.8 23.8 124.2 2.4 54.6 3 72 3 211s-0.6 156.4-3 211c-2.4 54.4-11.2 91.8-23.8 124.2-12.6 34-30 62.6-58.6 91-28.4 28.4-57 46-90.6 59-32.6 12.6-69.8 21.4-124.2 23.8-54.8 2.6-72.2 3.2-211.2 3.2v0zM512 711c-145.2 0-263-117.8-263-263s117.8-263 263-263 263 117.8 263 263c0 145.2-117.8 263-263 263zM512 277.4c-94.2 0-170.6 76.4-170.6 170.6s76.4 170.6 170.6 170.6c94.2 0 170.6-76.4 170.6-170.6s-76.4-170.6-170.6-170.6zM846.8 721.4c0-33.91-27.49-61.4-61.4-61.4s-61.4 27.49-61.4 61.4c0 33.91 27.49 61.4 61.4 61.4s61.4-27.49 61.4-61.4z" glyph-name="icon-instagram" unicode=""/>
   <glyph d="M873 811.2c-95.8 96-223.2 148.8-359 148.8-279.6 0-507.2-227.6-507.2-507.4 0-89.4 23.4-176.8 67.8-253.6l-72-263 269 70.6c74.2-40.4 157.6-61.8 242.4-61.8h0.2c0 0 0 0 0 0 279.6 0 507.4 227.6 507.4 507.4 0 135.6-52.8 263-148.6 359zM514.2 30.4v0c-75.8 0-150 20.4-214.8 58.8l-15.4 9.2-159.6-41.8 42.6 155.6-10 16c-42.4 67-64.6 144.6-64.6 224.4 0 232.6 189.2 421.8 422 421.8 112.6 0 218.6-44 298.2-123.6 79.6-79.8 123.4-185.6 123.4-298.4-0.2-232.8-189.4-422-421.8-422zM745.4 346.4c-12.6 6.4-75 37-86.6 41.2s-20 6.4-28.6-6.4c-8.4-12.6-32.8-41.2-40.2-49.8-7.4-8.4-14.8-9.6-27.4-3.2s-53.6 19.8-102 63c-37.6 33.6-63.2 75.2-70.6 87.8s-0.8 19.6 5.6 25.8c5.8 5.6 12.6 14.8 19 22.2s8.4 12.6 12.6 21.2c4.2 8.4 2.2 15.8-1 22.2s-28.6 68.8-39 94.2c-10.2 24.8-20.8 21.4-28.6 21.8-7.4 0.4-15.8 0.4-24.2 0.4s-22.2-3.2-33.8-15.8c-11.6-12.6-44.4-43.4-44.4-105.8s45.4-122.6 51.8-131.2c6.4-8.4 89.4-136.6 216.6-191.4 30.2-13 53.8-20.8 72.2-26.8 30.4-9.6 58-8.2 79.8-5 24.4 3.6 75 30.6 85.6 60.2s10.6 55 7.4 60.2c-3 5.6-11.4 8.8-24.2 15.2z" glyph-name="icon-whatsapp" unicode=""/>
   <glyph d="M1024 733.6c-37.6-16.8-78.2-28-120.6-33 43.4 26 76.6 67.2 92.4 116.2-40.6-24-85.6-41.6-133.4-51-38.4 40.8-93 66.2-153.4 66.2-116 0-210-94-210-210 0-16.4 1.8-32.4 5.4-47.8-174.6 8.8-329.4 92.4-433 219.6-18-31-28.4-67.2-28.4-105.6 0-72.8 37-137.2 93.4-174.8-34.4 1-66.8 10.6-95.2 26.2 0-0.8 0-1.8 0-2.6 0-101.8 72.4-186.8 168.6-206-17.6-4.8-36.2-7.4-55.4-7.4-13.6 0-26.6 1.4-39.6 3.8 26.8-83.4 104.4-144.2 196.2-146-72-56.4-162.4-90-261-90-17 0-33.6 1-50.2 3 93.2-59.8 203.6-94.4 322.2-94.4 386.4 0 597.8 320.2 597.8 597.8 0 9.2-0.2 18.2-0.6 27.2 41 29.4 76.6 66.4 104.8 108.6z" glyph-name="twitter" unicode=""/>
   <glyph d="M425.6 922.6c-1.6 1-3.4 1.8-5 2.6-1.8-0.4-3.4-0.6-5.2-1l10.2-1.6zM36.8 539c-0.4-1.8-0.6-3.6-0.8-5.2 1-1.6 1.6-3.2 2.6-4.8l-1.8 10zM986.8 357.4c0.4 1.8 0.6 3.6 1 5.4-1 1.6-1.6 3.2-2.6 4.8l1.6-10.2zM592-23c1.6-1 3.4-1.8 5-2.6 1.8 0.4 3.6 0.6 5.4 0.8l-10.4 1.8zM987.8 362.8c-0.4-1.8-0.6-3.6-1-5.4l-1.8 10.4c1-1.8 1.8-3.4 2.8-5 5.2 28.8 8 58.2 8 87.6 0 65.2-12.8 128.6-38 188.2-24.4 57.6-59.2 109.4-103.6 153.8s-96.2 79.2-153.6 103.6c-59.6 25.2-123 38-188.2 38-30.8 0-61.6-2.8-91.6-8.6 0 0-0.2 0-0.2 0 1.6-0.8 3.4-1.6 5-2.6l-10.2 1.6c1.8 0.4 3.4 0.6 5.2 1-41.2 21.8-87.4 33.6-134.2 33.6-76.4 0-148.4-29.8-202.4-83.8s-83.8-126-83.8-202.4c0-48.6 12.6-96.6 36-138.8 0.4 1.8 0.6 3.6 0.8 5.2l1.8-10.2c-1 1.6-1.8 3.2-2.6 4.8-4.8-27.4-7.2-55.4-7.2-83.4 0-65.2 12.8-128.6 38-188.2 24.4-57.6 59.2-109.2 103.6-153.6s96.2-79.2 153.8-103.6c59.6-25.2 123-38 188.2-38 28.4 0 56.8 2.6 84.6 7.6-1.6 1-3.2 1.8-5 2.6l10.4-1.8c-1.8-0.4-3.6-0.6-5.4-0.8 42.8-24.2 91.4-37.2 140.8-37.2 76.4 0 148.4 29.8 202.4 83.8s83.8 126 83.8 202.4c-0.2 48.6-12.8 96.6-36.4 139.2zM514.2 154.2c-171.8 0-248.6 84.4-248.6 147.8 0 32.4 24 55.2 57 55.2 73.6 0 54.4-105.6 191.6-105.6 70.2 0 109 38.2 109 77.2 0 23.4-11.6 49.4-57.8 60.8l-152.8 38.2c-123 30.8-145.4 97.4-145.4 160 0 129.8 122.2 178.6 237 178.6 105.8 0 230.4-58.4 230.4-136.4 0-33.4-29-52.8-62-52.8-62.8 0-51.2 86.8-177.6 86.8-62.8 0-97.4-28.4-97.4-69s49.6-53.6 92.6-63.4l113.2-25.2c123.8-27.6 155.2-100 155.2-168 0-105.4-81-184.2-244.4-184.2z" glyph-name="skype" unicode=""/>
  </font>
  <font id="icomoon-6" horiz-adv-x="1024" horiz-origin-x="0" horiz-origin-y="0" vert-adv-y="90" vert-origin-x="45" vert-origin-y="90">
   <font-face ascent="960" descent="-64" units-per-em="1024"/>
   <missing-glyph horiz-adv-x="1024"/>
   <glyph d="" horiz-adv-x="512" unicode=" "/>
   <glyph d="M1578.162 920.217c53.174 52.586 139.117 52.586 191.899 0 52.978-52.586 53.371-137.547 0-190.133l-766.81-751.506c-52.978-52.586-138.724-52.586-192.095 0l-766.81 751.506c-52.978 52.39-52.978 137.547 0 190.133 53.174 52.586 139.117 52.586 191.899 0l671.253-616.313 670.665 616.313z" glyph-name="chevron-bold" horiz-adv-x="1815" unicode=""/>
   <glyph d="M879.59 218.256c-78.769 0-137.846-59.077-137.846-137.846s59.077-137.846 137.846-137.846c78.769 0 137.846 59.077 137.846 137.846v0c6.564 72.205-59.077 137.846-137.846 137.846zM879.59 21.333c-32.821 0-59.077 26.256-59.077 59.077s26.256 59.077 59.077 59.077c32.821 0 59.077-26.256 59.077-59.077s-26.256-59.077-59.077-59.077v0zM1102.769 756.513c-6.564 13.128-19.692 19.692-32.821 13.128h-813.949l-39.385 157.538c-6.564 19.692-19.692 32.821-39.385 32.821h-137.846c-26.256 0-39.385-26.256-39.385-45.949s19.692-32.821 39.385-39.385h105.026l137.846-564.513c6.564-19.692 19.692-32.821 39.385-32.821h649.846c19.692 0 32.821 13.128 39.385 32.821l98.462 406.974c6.564 13.128 0 26.256-6.564 39.385zM938.667 362.667h-584.205l-78.769 328.205h741.744l-78.769-328.205zM374.154 218.256c-78.769 0-137.846-59.077-137.846-137.846s59.077-137.846 137.846-137.846c78.769 0 137.846 59.077 137.846 137.846v0c0 72.205-59.077 137.846-137.846 137.846zM374.154 21.333c-32.821 0-59.077 26.256-59.077 59.077s26.256 59.077 59.077 59.077c32.821 0 59.077-26.256 59.077-59.077-6.564-32.821-32.821-59.077-59.077-59.077v0z" glyph-name="cart" horiz-adv-x="1109" unicode=""/>
   <glyph d="M537.6 172.8l211.2-115.2-44.8 256c0 12.8 0 25.6 12.8 38.4l179.2 172.8-243.2 38.4c-12.8 6.4-25.6 12.8-32 25.6l-108.8 224-102.4-224c-6.4-12.8-19.2-19.2-32-25.6l-243.2-38.4 179.2-179.2c6.4-6.4 12.8-19.2 6.4-38.4l-38.4-256 211.2 115.2c12.8 12.8 32 12.8 44.8 6.4v0zM780.8-57.6l-268.8 147.2-268.8-147.2c-12.8-6.4-32-6.4-44.8 0s-19.2 25.6-19.2 44.8l51.2 320-217.6 217.6c-12.8 12.8-12.8 32-12.8 44.8 6.4 12.8 19.2 25.6 32 32l300.8 44.8 134.4 288c12.8 12.8 25.6 25.6 44.8 25.6s32-6.4 38.4-25.6l134.4-288 300.8-44.8c12.8 0 32-12.8 32-32 6.4-12.8 0-32-12.8-44.8l-217.6-224 51.2-320c0-19.2-6.4-32-19.2-44.8-6.4 0-25.6 0-38.4 6.4v0z" glyph-name="star" unicode=""/>
   <glyph d="M0 656.593h948.148v-113.778h-948.148v113.778zM0 49.778h948.148v-113.778h-948.148v113.778zM0 960h948.148v-113.778h-948.148v113.778zM0 353.185h948.148v-113.778h-948.148v113.778zM1061.926 49.778h113.778v-113.778h-113.778v113.778zM1061.926 656.593h113.778v-113.778h-113.778v113.778zM1061.926 960h113.778v-113.778h-113.778v113.778zM1061.926 353.185h113.778v-113.778h-113.778v113.778z" glyph-name="list" horiz-adv-x="1176" unicode=""/>
   <glyph d="M641.542 429.494c123.373 117.205 129.542 314.602 12.337 437.976s-308.434 123.373-431.807 6.169-129.542-308.434-12.337-431.807c6.169-6.169 6.169-6.169 12.337-12.337-141.88-104.867-228.241-271.422-222.072-444.145v-43.181h863.614v43.181c6.169 172.723-74.024 339.277-222.072 444.145zM209.735 651.566c0 123.373 98.699 222.072 222.072 222.072s222.072-98.699 222.072-222.072-98.699-215.904-222.072-215.904v0c-123.373 0-222.072 98.699-222.072 215.904v0zM92.53 28.53c6.169 135.711 80.193 252.916 185.060 333.108l6.169 6.169c92.53-43.181 197.398-43.181 289.928 0l6.169-6.169c111.036-74.024 178.892-197.398 185.060-333.108h-672.386z" glyph-name="user" horiz-adv-x="864" unicode=""/>
   <glyph d="M971.148 28.49l-244.439 251.045c145.342 171.768 125.523 436.026-52.852 581.368s-429.419 125.523-574.761-46.245-125.523-436.026 46.245-581.368c145.342-118.916 350.142-125.523 502.090-19.819l244.439-257.652c13.213-13.213 26.426-19.819 39.639-13.213 13.213 0 26.426 6.606 39.639 13.213 19.819 13.213 26.426 46.245 0 72.671 0 0 0 0 0 0zM409.6 854.297c171.768 0 303.897-138.735 303.897-303.897 0-171.768-138.735-303.897-303.897-303.897-171.768 0-303.897 138.735-303.897 303.897s138.735 303.897 303.897 303.897c0 0 0 0 0 0z" glyph-name="search" horiz-adv-x="991" unicode=""/>
   <glyph d="M1061.236 960l-111.709-102.4 344.436-335.127h-1293.964v-148.945h1293.964l-344.436-335.127 111.709-102.4 418.909 409.6 102.4 102.4z" glyph-name="arrow-right" horiz-adv-x="1583" unicode=""/>
   <glyph d="M844.8 516.267l-307.2-315.733v759.467h-136.533v-759.467l-307.2 315.733-93.867-102.4 469.333-477.867 469.333 477.867z" glyph-name="arrow-down" horiz-adv-x="939" unicode=""/>
   <glyph d="M0 499.2v-563.2h1024v1024h-1024v-460.8zM563.2 857.6h358.4v-358.4h-358.4v358.4zM102.4 857.6h358.4v-358.4h-358.4v358.4zM102.4 396.8h819.2v-358.4h-819.2v358.4z" glyph-name="material" unicode=""/>
   <glyph d="M102.4 192h-102.4v-256h256v102.4h-153.6v153.6zM921.6 38.4h-153.6v-102.4h256v256h-102.4v-153.6zM0 960v-256h102.4v153.6h153.6v102.4h-256zM768 960v-102.4h153.6v-153.6h102.4v256h-256z" glyph-name="square" unicode=""/>
   <glyph d="M0 960h972.8v-102.4h-972.8v102.4zM0 38.4h972.8v-102.4h-972.8v102.4zM0 499.2h972.8v-102.4h-972.8v102.4z" glyph-name="floors" horiz-adv-x="973" unicode=""/>
   <glyph d="M920.913 960v0l-920.913-920.913 96.215-103.087 824.698 831.57 831.57-831.57 96.215 103.087-927.785 920.913z" glyph-name="chevron" horiz-adv-x="1849" unicode=""/>
   <glyph d="M1126.4 294.4v665.6h-102.4v-665.6h-768v665.6h-102.4v-665.6h-153.6v-102.4h153.6v-256h102.4v256h768v-256h102.4v256h153.6v102.4z" glyph-name="cokol" horiz-adv-x="1280" unicode=""/>
   <glyph d="M989.867 960h-424.77c-7.585 0-18.963-3.793-22.756-11.378l-530.963-530.963c-15.17-15.17-15.17-34.133 0-49.304 0 0 0 0 0 0l424.77-424.77c7.585-7.585 15.17-11.378 22.756-11.378s18.963 3.793 22.756 11.378l530.963 530.963c7.585 7.585 11.378 15.17 11.378 22.756v428.563c3.793 18.963-15.17 34.133-34.133 34.133 0 0 0 0 0 0zM955.733 891.733v-375.467l-496.83-496.83-375.467 375.467 496.83 496.83h375.467zM777.481 603.496c60.681 0 109.985 53.096 106.193 113.778 0 26.548-11.378 56.889-30.341 75.852v0c-41.719 41.719-113.778 41.719-155.496 0s-41.719-113.778 0-155.496c18.963-22.756 49.304-34.133 79.644-34.133zM804.030 683.141c-15.17-15.17-37.926-18.963-53.096-3.793 0 0-3.793 3.793-3.793 3.793-15.17 15.17-15.17 41.719 0 56.889s41.719 15.17 56.889 0c18.963-15.17 18.963-37.926 0-56.889z" glyph-name="tag" horiz-adv-x="1028" unicode=""/>
   <glyph d="M1363.537 960h-1325.811c-21.558 0-37.726-16.168-37.726-37.726v-943.158c0-26.947 16.168-43.116 37.726-43.116h1320.421c21.558 0 37.726 16.168 37.726 37.726v948.547c5.389 21.558-10.779 37.726-32.337 37.726zM1298.863 16.842h-1196.463l404.211 404.211 167.074-167.074c16.168-16.168 37.726-16.168 53.895 0l167.074 167.074 404.211-404.211zM80.842 846.821l371.874-371.874-371.874-371.874v743.747zM700.632 334.821l-544.337 544.337h1094.063l-549.726-544.337zM1320.421 846.821v-743.747l-366.484 371.874 366.484 371.874z" glyph-name="mail" horiz-adv-x="1401" unicode=""/>
   <glyph d="M1389.411 598.838l-471.635 352.664c-12.747 8.498-29.743 8.498-42.49 0l-76.481-59.485-76.481 59.485c-12.747 8.498-29.743 8.498-42.49 0l-76.481-59.485-76.481 55.237c-12.747 8.498-29.743 8.498-42.49 0l-471.635-348.415c-8.498-8.498-12.747-16.996-12.747-29.743v-594.855c0-21.245 16.996-33.992 33.992-33.992 0 0 0 0 0 0h1329.925c21.245 0 33.992 16.996 33.992 33.992v0 594.855c4.249 12.747 0 21.245-8.498 29.743zM565.112 8.232h-114.722v254.938h114.722v-254.938zM943.27 8.232h-305.925v288.929c0 21.245-16.996 33.992-33.992 33.992h-191.203c-21.245 0-33.992-16.996-33.992-33.992v-288.929h-305.925v543.867l437.643 327.17 433.394-327.17v-543.867zM1134.473 8.232h-123.22v560.863c0 12.747-4.249 21.245-12.747 29.743l-335.668 254.938 38.241 29.743 437.643-327.17-4.249-548.116zM1334.174 8.232h-127.469v560.863c0 12.747-4.249 21.245-12.747 29.743l-335.668 254.938 42.49 29.743 433.394-331.419v-543.867z" glyph-name="homes" horiz-adv-x="1402" unicode=""/>
   <glyph d="M894.433 558.759v0l-697.992 384.522c-41.796 25.078-91.951 25.078-133.747 0-37.616-25.078-62.694-66.873-62.694-108.669v-773.224c0-45.976 25.078-87.771 62.694-108.669 41.796-25.078 91.951-25.078 133.747 0l547.527 300.931h4.18l146.286 79.412c62.694 33.437 83.592 108.669 50.155 171.363-8.359 25.078-29.257 41.796-50.155 54.335zM71.053 61.388v769.045c0 4.18 0 4.18 0 8.359l405.42-376.163-405.42-401.241zM530.808 516.963l-397.061 367.804c8.359 0 20.898-4.18 29.257-8.359l468.114-263.314-100.31-96.131zM534.988 416.653l133.747-121.208-505.731-280.033c-12.539-4.18-25.078-8.359-37.616-8.359l409.6 409.6zM860.996 399.935v0l-125.388-71.053-150.465 137.927 112.849 112.849 158.824-91.951c16.718-8.359 29.257-25.078 29.257-45.976 0-16.718-12.539-33.437-25.078-41.796v0z" glyph-name="gplay-bordered" horiz-adv-x="961" unicode=""/>
   <glyph d="M870.065 638.745c-46.85 66.928-120.471 100.392-200.784 107.085-93.699 0-133.856-46.85-200.784-46.85-13.386 0-33.464 0-46.85 6.693 53.542 6.693 107.085 33.464 140.549 80.314 40.157 53.542 60.235 113.778 53.542 174.013-66.928-6.693-120.471-40.157-160.627-87.007s-60.235-100.392-53.542-160.627c-40.157 20.078-87.007 33.464-133.856 33.464-93.699-6.693-174.013-53.542-220.863-133.856-73.621-120.471-60.235-341.333 60.235-528.732 46.85-66.928 100.392-147.242 180.706-147.242s87.007 40.157 180.706 40.157 107.085-46.85 180.706-46.85 140.549 87.007 180.706 153.935c26.771 40.157 46.85 80.314 66.928 127.163-120.471 46.85-180.706 180.706-133.856 301.176 20.078 60.235 60.235 100.392 107.085 127.163z" glyph-name="apple" horiz-adv-x="897" unicode=""/>
   <glyph d="M872.591 238.817c-3.984 7.969-11.953 15.938-19.922 19.922-63.751 23.907-107.58 83.673-111.564 151.409s27.891 131.486 87.658 163.362c7.969 3.984 15.938 15.938 15.938 23.907 3.984 11.953 0 19.922-7.969 27.891-47.813 67.735-127.502 107.58-207.191 111.564-15.938 0-31.875 0-47.813-3.984 3.984 3.984 7.969 7.969 11.953 15.938 39.844 51.798 59.767 115.549 51.798 183.284v0c0 15.938-15.938 27.891-35.86 27.891-67.735-7.969-127.502-39.844-167.346-91.642-35.86-43.829-55.782-99.611-55.782-155.393v0c-35.86 15.938-75.704 23.907-111.564 23.907-95.626-3.984-179.3-55.782-227.113-139.455-79.689-127.502-55.782-342.661 55.782-517.977 43.829-67.735 103.595-147.424 191.253-147.424v0c27.891 0 55.782 7.969 79.689 19.922v0c23.907 11.953 51.798 19.922 79.689 19.922s55.782-7.969 79.689-19.922c23.907-11.953 51.798-19.922 83.673-19.922 83.673 0 143.44 79.689 195.237 155.393 23.907 35.86 47.813 79.689 63.751 119.533 0 11.953 0 19.922-3.984 31.875zM669.385 406.163c3.984-83.673 51.798-159.377 123.518-199.222-11.953-27.891-27.891-55.782-43.829-79.689-35.86-55.782-83.673-119.533-135.471-119.533-19.922 0-35.86 3.984-51.798 15.938-31.875 15.938-71.72 23.907-107.58 23.907s-75.704-7.969-107.58-23.907c-15.938-7.969-35.86-11.953-51.798-15.938-55.782-3.984-99.611 59.767-135.471 111.564-107.58 167.346-107.58 354.615-55.782 438.288 35.86 59.767 95.626 99.611 167.346 103.595 31.875 0 59.767-7.969 87.658-19.922v0c27.891-11.953 59.767-19.922 91.642-19.922 27.891 0 59.767 7.969 83.673 19.922v0c27.891 11.953 59.767 19.922 91.642 19.922 51.798 0 95.626-19.922 131.486-55.782-59.767-47.813-95.626-123.518-87.658-199.222v0zM537.899 792.654v0c-19.922-27.891-47.813-47.813-79.689-55.782 3.984 31.875 19.922 63.751 39.844 87.658s47.813 43.829 79.689 55.782c-7.969-31.875-19.922-63.751-39.844-87.658v0z" glyph-name="apple-bordered" horiz-adv-x="873" unicode=""/>
   <glyph d="M686.613 616.694l-585.988 325.549c-11.838 11.838-29.595 17.757-41.434 17.757l485.364-485.364 142.058 142.058zM59.191-64c11.838 0 29.595 5.919 41.434 17.757l585.988 331.468-142.058 136.139-485.364-485.364zM899.699 492.393l-183.491 106.543-147.977-153.896 147.977-147.977 183.491 106.543c0 0 29.595 17.757 29.595 47.353s-29.595 41.434-29.595 41.434zM23.676 948.162c-17.757-11.838-23.676-29.595-23.676-47.353v-905.618c0-17.757 5.919-35.514 23.676-47.353l497.202 503.121-497.202 497.202z" glyph-name="gplay" horiz-adv-x="929" unicode=""/>
   <glyph d="M1682.286 649.143c54.857 64 91.429 128 118.857 201.143 18.286 45.714 0 73.143-45.714 73.143-9.143 0-18.286 0-27.429 0h-283.429c-27.429 0-64-18.286-73.143-45.714-18.286-45.714-36.571-82.286-54.857-128-45.714-91.429-100.571-182.857-164.571-256-18.286-18.286-36.571-36.571-54.857-27.429s-45.714 64-45.714 82.286v329.143c-9.143 45.714-18.286 73.143-64 82.286h-301.714c-27.429 0-54.857-18.286-73.143-36.571s-18.286-27.429 9.143-36.571c45.714-9.143 82.286-45.714 82.286-91.429 9.143-82.286 9.143-155.429 0-237.714 0-27.429-9.143-45.714-18.286-73.143 0-18.286-27.429-36.571-45.714-27.429-9.143 0-18.286 9.143-18.286 9.143-27.429 27.429-45.714 45.714-64 73.143-73.143 109.714-128 219.429-173.714 329.143-9.143 36.571-36.571 54.857-73.143 54.857-82.286 0-173.714 0-256 0-54.857 0-64-27.429-45.714-73.143 91.429-210.286 201.143-411.429 329.143-603.429 64-100.571 155.429-173.714 256-237.714 118.857-64 246.857-91.429 374.857-82.286 64 0 82.286 18.286 82.286 82.286 0 45.714 9.143 82.286 27.429 128 9.143 27.429 45.714 45.714 73.143 27.429 9.143 0 9.143-9.143 18.286-9.143 18.286-9.143 36.571-18.286 45.714-36.571 36.571-36.571 73.143-82.286 100.571-118.857 45.714-45.714 100.571-73.143 164.571-73.143h265.143c45.714 0 64 54.857 36.571 100.571-18.286 36.571-36.571 64-64 91.429-54.857 64-118.857 128-173.714 182.857s-54.857 82.286-18.286 146.286c54.857 73.143 109.714 137.143 155.429 201.143z" glyph-name="vk" horiz-adv-x="1801" unicode=""/>
   <glyph d="M638.42 448l372.938-372.938v745.877l-372.938-372.938zM929.185 271.012l-176.988 176.988 176.988 176.988v-353.975zM0 75.062l372.938 372.938-372.938 372.938v-745.877zM82.173 624.988l176.988-176.988-176.988-176.988v353.975zM562.568-13.432c0-27.928-25.47-50.568-56.889-50.568s-56.889 22.64-56.889 50.568c0 27.928 25.47 50.568 56.889 50.568s56.889-22.64 56.889-50.568zM505.679 226.765c-31.605 0-56.889-25.284-56.889-56.889s25.284-56.889 56.889-56.889c31.605 0 56.889 25.284 56.889 56.889 0 0 0 0 0 0 0 31.605-25.284 56.889-56.889 56.889zM505.679 410.074c-31.605 0-50.568-25.284-50.568-56.889s25.284-50.568 56.889-50.568c31.605 0 50.568 25.284 50.568 50.568 0 31.605-25.284 56.889-56.889 56.889zM562.568 536.494c0-31.419-25.47-56.889-56.889-56.889s-56.889 25.47-56.889 56.889c0 31.419 25.47 56.889 56.889 56.889s56.889-25.47 56.889-56.889zM562.568 719.802c0-31.419-25.47-56.889-56.889-56.889s-56.889 25.47-56.889 56.889c0 31.419 25.47 56.889 56.889 56.889s56.889-25.47 56.889-56.889zM562.568 903.111c0-31.419-25.47-56.889-56.889-56.889s-56.889 25.47-56.889 56.889c0 31.419 25.47 56.889 56.889 56.889s56.889-25.47 56.889-56.889z" glyph-name="resize" horiz-adv-x="1011" unicode=""/>
   <glyph d="M544 960c-262.4 0-480-211.2-486.4-473.6 0-89.6 19.2-172.8 64-249.6l-121.6-300.8 320 121.6c64-38.4 147.2-57.6 224-57.6 262.4 0 480 217.6 480 480s-211.2 480-480 480v0zM236.8 249.6v0c-51.2 70.4-76.8 147.2-76.8 230.4 0 211.2 172.8 384 384 384s384-172.8 384-384-172.8-384-384-384c-76.8 0-147.2 19.2-211.2 64h-6.4l-166.4-70.4 76.8 160zM537.6 358.4c-12.8 0-25.6 0-38.4-12.8-19.2-19.2-19.2-44.8 0-64 0 0 0 0 0 0 12.8-6.4 25.6-12.8 38.4-12.8s25.6 6.4 38.4 12.8c19.2 19.2 19.2 44.8 0 64 0 0 0 0 0 0-6.4 12.8-25.6 12.8-38.4 12.8zM518.4 601.6c6.4 6.4 19.2 12.8 25.6 12.8 25.6 0 38.4-12.8 38.4-44.8 0-12.8-6.4-25.6-12.8-32s-19.2-19.2-32-32c-12.8-6.4-25.6-25.6-32-38.4-6.4-19.2-6.4-44.8-6.4-64h83.2c0 12.8 0 25.6 6.4 38.4 0 6.4 6.4 19.2 19.2 25.6l32 25.6c12.8 12.8 25.6 25.6 32 38.4s12.8 25.6 6.4 44.8-12.8 64-32 83.2c-32 25.6-70.4 38.4-102.4 32-38.4 0-70.4-6.4-102.4-32-25.6-19.2-38.4-51.2-32-89.6h96c0 12.8 0 25.6 12.8 32z" glyph-name="question" unicode=""/>
   <glyph d="M1005.714 859.429l-100.571 100.571-393.143-402.286-9.143 9.143-9.143-9.143-393.143 402.286-100.571-100.571 393.143-402.286-393.143-420.571 100.571-100.571 393.143 411.429 9.143-9.143 9.143 9.143 393.143-411.429 100.571 100.571-393.143 420.571z" glyph-name="close" horiz-adv-x="1006" unicode=""/>
   <glyph d="M308.916 736.894c0 22.883 17.162 45.765 40.045 45.765 0 0 5.721 0 5.721 0h114.413v177.341h-154.458c-108.693 5.721-205.944-74.369-211.665-183.061 0-11.441 0-22.883 0-34.324v-114.413h-102.972v-183.061h102.972v-509.14h211.665v509.14h143.017l17.162 183.061h-165.899v108.693z" glyph-name="fb" horiz-adv-x="469" unicode=""/>
   <glyph d="M512 960l-512-192v-640l512-192 512 192v640l-512 192zM473.6 38.4l-390.4 147.2v499.2l390.4-147.2v-499.2zM153.6 742.4l358.4 134.4 358.4-134.4-358.4-134.4-358.4 134.4zM940.8 179.2l-390.4-147.2v505.6l390.4 147.2v-505.6z" glyph-name="box" unicode=""/>
   <glyph d="M1421.241 818.759c8.828 0 8.828 0 0 0-17.655 61.793-70.621 105.931-132.414 105.931h8.828c-379.586 44.138-768 44.138-1147.586 0h8.828c-61.793 0-114.759-35.31-132.414-97.103v-8.828c0-8.828 0-8.828 0-17.655-17.655-114.759-26.483-238.345-26.483-353.103s8.828-238.345 26.483-353.103c0-8.828 0-8.828 0-17.655v-8.828c17.655-52.966 70.621-97.103 132.414-97.103h-8.828c194.207-26.483 388.414-35.31 573.793-35.31 194.207 0 388.414 17.655 573.793 35.31h-8.828c61.793 0 114.759 44.138 132.414 105.931 0 0 0 8.828 0 8.828 0 8.828 0 8.828 0 17.655 17.655 114.759 26.483 238.345 26.483 353.103s-8.828 238.345-26.483 353.103c0 0 0 0 0 8.828zM935.724 421.517l-291.31-220.69c-8.828 0-17.655-8.828-17.655-8.828-8.828 0-8.828 0-17.655 0-17.655 8.828-17.655 26.483-17.655 35.31v432.552c0 17.655 17.655 35.31 35.31 35.31 8.828 0 8.828 0 17.655 0l300.138-220.69c8.828-8.828 17.655-35.31-8.828-52.966 8.828 0 8.828 0 0 0v0z" glyph-name="youtube" horiz-adv-x="1448" unicode=""/>
   <glyph d="M0 960h102.4v-1024h-102.4v1024zM920.73 960h102.4v-1024h-102.4v1024zM0 960h1023.13v-102.4h-1023.13v102.4zM0 38.4h1023.13v-102.4h-1023.13v102.4z" glyph-name="big-list-view" horiz-adv-x="1023" unicode=""/>
   <glyph d="M0 960h102.4v-460.691h-102.4v460.691zM358.074 960h102.4v-460.691h-102.4v460.691zM0 960h460.474v-102.4h-460.474v102.4zM0 601.709h460.474v-102.4h-460.474v102.4zM562.656 960h102.4v-460.691h-102.4v460.691zM920.73 960h102.4v-460.691h-102.4v460.691zM562.656 960h460.474v-102.4h-460.474v102.4zM562.656 601.709h460.474v-102.4h-460.474v102.4zM0 396.909h102.4v-460.909h-102.4v460.909zM358.074 396.909h102.4v-460.909h-102.4v460.909zM0 396.909h460.474v-102.4h-460.474v102.4zM0 38.4h460.474v-102.4h-460.474v102.4zM562.656 396.909h102.4v-460.909h-102.4v460.909zM920.73 396.909h102.4v-460.909h-102.4v460.909zM562.656 396.909h460.474v-102.4h-460.474v102.4zM562.656 38.4h460.474v-102.4h-460.474v102.4z" glyph-name="cards" horiz-adv-x="1023" unicode=""/>
   <glyph d="M0 960h102.4v-460.691h-102.4v460.691zM920.73 960h102.4v-460.691h-102.4v460.691zM0 960h1023.13v-102.4h-1023.13v102.4zM0 601.709h1023.13v-102.4h-1023.13v102.4zM0 396.909h102.4v-460.909h-102.4v460.909zM920.73 396.909h102.4v-460.909h-102.4v460.909zM0 396.909h1023.13v-102.4h-1023.13v102.4zM0 38.4h1023.13v-102.4h-1023.13v102.4z" glyph-name="list-view" horiz-adv-x="1023" unicode=""/>
   <glyph d="M1148.169 942.281c-10.595 10.134-24.714 16.66-40.342 17.564l-0.171 0.008c-2.521 0-5.078 0-7.708 0-7.47-0.487-14.421-2.147-20.858-4.799l0.437 0.16-1040.22-404.142c-23.461-8.943-39.825-31.255-39.825-57.389 0-26.435 16.743-48.959 40.204-57.547l0.425-0.136 264.704-98.816 74.121-274.348c5.636-19.947 20.423-35.563 39.418-42.242l0.437-0.134c6.388-2.316 13.76-3.656 21.446-3.656 13.849 0 26.683 4.349 37.21 11.756l-0.206-0.137 141.959 99.766 273.617-181.194c9.967-6.661 22.226-10.631 35.411-10.631 0.034 0 0.068 0 0.102 0h-0.005c8.755 0.010 17.103 1.74 24.728 4.871l-0.435-0.158c19.336 7.861 33.599 24.635 37.813 45.080l0.069 0.401 175.349 899.21c0.796 3.754 1.252 8.067 1.252 12.487 0 1.558-0.057 3.102-0.168 4.631l0.012-0.205c-1.035 13.94-6.661 26.398-15.354 36.037l0.048-0.054zM431.614 352.306l-12.713 47.015c-5.53 19.504-19.774 34.854-38.147 41.795l-0.43 0.143-143.53 53.591 590.816 229.488zM477.862 181.195l-13.334 49.317 42.997-28.458zM884.050 102.032l-229.926 152.261-10.411-14.978 9.206 15.745-83.473 55.308 435.047 408.709z" glyph-name="telegram-bordered" horiz-adv-x="1167" unicode=""/>
   <glyph d="M565.333 447.999c-32 0-96-64-224-64s-192 64-224 64c-35.2 0-64-28.8-64-64 0-32 19.2-48 32-54.4 38.4-22.4 160-73.6 160-73.6l-137.6-172.8c0 0-25.6-28.8-25.6-51.2 0-35.2 28.8-64 64-64 32 0 48 22.4 48 22.4l147.2 169.6 144-169.6c0 0 16-22.4 48-22.4 35.2 0 64 28.8 64 64 0 19.2-25.6 51.2-25.6 51.2l-134.4 172.8c0 0 121.6 51.2 160 73.6 12.8 9.6 32 22.4 32 54.4 0 35.2-28.8 64-64 64zM347.083 940.206c-124.8 0-224-99.2-224-224s99.2-224 224-224c124.8 0 224 99.2 224 224s-99.2 224-224 224zM347.083 604.206c-60.8 0-112 51.2-112 112s51.2 112 112 112c60.8 0 112-51.2 112-112s-51.2-112-112-112z" glyph-name="ok" horiz-adv-x="683" unicode=""/>
   <glyph d="M877.714 862.476v97.524h-146.286v-97.524h-731.429v-146.286h731.429v-97.524h146.286v97.524h195.048v146.286zM390.095 618.667h-146.286v-97.524h-243.81v-146.286h243.81v-97.524h146.286v97.524h682.667v146.286h-682.667zM682.667 277.333h-146.286v-97.524h-536.381v-146.286h536.381v-97.524h146.286v97.524h390.095v146.286h-390.095z" glyph-name="equalizer" horiz-adv-x="1073" unicode=""/>
   <glyph d="M861.474 860.148c-25.509 23.358-128.314 98.041-357.282 99.117 0 0-270.152 16.289-401.847-104.496-73.301-73.301-99.117-180.562-101.729-313.64-2.766-133.078-6.3-382.177 234.039-449.792 0 0 0.154 0 0.154 0l-0.154-103.112c0 0-1.537-41.798 25.97-50.25 33.193-10.296 52.709 21.36 84.518 55.629 17.365 18.748 41.491 46.408 59.624 67.461 164.273-13.83 290.743 17.826 305.035 22.436 33.193 10.757 220.977 34.883 251.404 283.982 31.502 256.782-15.367 419.365-99.732 492.666zM889.288 385.923c-25.817-208.069-178.103-221.285-206.071-230.197-11.986-3.842-122.936-31.502-262.468-22.282 0 0-104.035-125.395-136.459-158.126-5.071-5.071-11.064-7.222-15.060-6.147-5.532 1.383-7.069 7.991-7.069 17.672 0.154 13.83 0.922 171.342 0.922 171.342-0.154 0-0.154 0 0 0-203.152 56.397-191.319 268.615-189.014 379.718s23.204 202.076 85.133 263.237c111.411 100.807 340.84 85.748 340.84 85.748 193.778-0.922 286.594-59.163 308.108-78.679 71.303-61.314 107.723-207.762 81.138-422.285zM523.554 373.322c0 0 18.287-1.537 27.968 10.603l19.055 23.973c9.22 11.986 31.502 19.516 53.323 7.376 12.14-6.915 33.961-20.284 47.484-30.273 14.445-10.603 44.103-35.344 44.103-35.344 14.138-11.833 17.365-29.351 7.837-47.791 0-0.154-0.154-0.307-0.154-0.307-9.835-17.365-23.050-33.807-39.801-49.021-0.154-0.154-0.154-0.154-0.307-0.307-13.677-11.372-27.2-17.979-40.415-19.516-1.537-0.307-3.534-0.461-5.839-0.307-5.839 0-11.525 0.768-17.211 2.612l-0.461 0.615c-20.438 5.686-54.399 20.131-111.103 51.326-36.881 20.284-67.461 41.030-93.278 61.622-13.677 10.757-27.661 23.050-41.952 37.188-0.461 0.461-0.922 0.922-1.383 1.383s-0.922 0.922-1.383 1.383v0c0 0 0 0 0 0-0.461 0.461-0.922 0.922-1.383 1.383s-0.922 0.922-1.383 1.383c-14.138 14.291-26.431 28.275-37.188 41.952-20.592 25.817-41.337 56.551-61.622 93.278-31.195 56.704-45.64 90.665-51.326 111.103l-0.615 0.461c-1.844 5.686-2.766 11.372-2.612 17.211-0.154 2.305 0 4.303 0.307 5.839 1.537 13.216 8.145 26.739 19.516 40.415 0.154 0.154 0.154 0.154 0.307 0.307 15.213 16.75 31.502 29.966 49.021 39.801 0.154 0 0.307 0.154 0.307 0.154 18.44 9.528 35.959 6.3 47.791-7.837 0.154-0.154 24.741-29.658 35.344-44.103 9.989-13.677 23.511-35.344 30.273-47.484 12.14-21.821 4.61-44.103-7.376-53.323l-23.973-19.055c-12.14-9.835-10.603-27.968-10.603-27.968s35.651-134.768 168.73-168.73z" glyph-name="purple_Purple_icon" horiz-adv-x="971" unicode=""/>
   <glyph d="M203.79 355.602v-83.538h-139.23v-130.37h139.23v-136.698h180.999v136.698h321.494v130.37h-321.494v83.538h199.985c94.929 0 169.607 25.315 225.299 74.678s83.538 113.915 83.538 193.656c0 79.741-27.846 143.027-83.538 192.39s-130.37 74.678-225.299 74.678h-380.983v-405.032h-139.23v-130.37zM384.789 731.523h175.936c92.398 0 149.356-43.035 149.356-122.775 0-77.209-56.958-122.775-149.356-122.775h-175.936z" glyph-name="r-2" horiz-adv-x="958" unicode=""/>
   <glyph d="M512-51.2c-282.77 0-512 229.23-512 512s229.23 512 512 512v0c282.77 0 512-229.23 512-512s-229.23-512-512-512v0zM614.4 614.4c0-14.336-10.752-40.96-21.504-51.2l-80.896-80.896c-29.184-29.696-51.2-81.92-51.2-123.904v-51.2h102.4v51.2c0 14.848 10.752 40.96 21.504 51.2l80.896 80.896c29.184 29.696 51.2 81.92 51.2 123.904 0 113.108-91.692 204.8-204.8 204.8s-204.8-91.692-204.8-204.8v0h102.4c0 56.554 45.846 102.4 102.4 102.4s102.4-45.846 102.4-102.4v0zM460.8 204.8v-102.4h102.4v102.4h-102.4z" glyph-name="question1" unicode=""/>
   <glyph d="M704 320c-64-64-64-128-128-128s-128 64-192 128-128 128-128 192 64 64 128 128-128 256-192 256-192-192-192-192c0-128 131.5-387.5 256-512s384-256 512-256c0 0 192 128 192 192s-192 256-256 192z" glyph-name="phone" unicode=""/>
   <glyph d="M512 896c-141.384 0-269.376-57.32-362.032-149.978l-149.968 149.978v-384h384l-143.532 143.522c69.496 69.492 165.492 112.478 271.532 112.478 212.068 0 384-171.924 384-384 0-114.696-50.292-217.636-130.018-288l84.666-96c106.302 93.816 173.352 231.076 173.352 384 0 282.77-229.23 512-512 512z" glyph-name="undo" unicode=""/>
   <glyph d="M0 384c0-152.924 67.048-290.184 173.35-384l84.666 96c-79.726 70.364-130.016 173.304-130.016 288 0 212.076 171.93 384 384 384 106.042 0 202.038-42.986 271.53-112.478l-143.53-143.522h384v384l-149.97-149.978c-92.654 92.658-220.644 149.978-362.030 149.978-282.77 0-512-229.23-512-512z" glyph-name="redo" unicode=""/>
   <glyph d="M512 867.8c136.8 0 153-0.6 206.8-3 50-2.2 77-10.6 95-17.6 23.8-9.2 41-20.4 58.8-38.2 18-18 29-35 38.4-58.8 7-18 15.4-45.2 17.6-95 2.4-54 3-70.2 3-206.8s-0.6-153-3-206.8c-2.2-50-10.6-77-17.6-95-9.2-23.8-20.4-41-38.2-58.8-18-18-35-29-58.8-38.4-18-7-45.2-15.4-95-17.6-54-2.4-70.2-3-206.8-3s-153 0.6-206.8 3c-50 2.2-77 10.6-95 17.6-23.8 9.2-41 20.4-58.8 38.2-18 18-29 35-38.4 58.8-7 18-15.4 45.2-17.6 95-2.4 54-3 70.2-3 206.8s0.6 153 3 206.8c2.2 50 10.6 77 17.6 95 9.2 23.8 20.4 41 38.2 58.8 18 18 35 29 58.8 38.4 18 7 45.2 15.4 95 17.6 53.8 2.4 70 3 206.8 3zM512 960c-139 0-156.4-0.6-211-3-54.4-2.4-91.8-11.2-124.2-23.8-33.8-13.2-62.4-30.6-90.8-59.2-28.6-28.4-46-57-59.2-90.6-12.6-32.6-21.4-69.8-23.8-124.2-2.4-54.8-3-72.2-3-211.2s0.6-156.4 3-211c2.4-54.4 11.2-91.8 23.8-124.2 13.2-33.8 30.6-62.4 59.2-90.8 28.4-28.4 57-46 90.6-59 32.6-12.6 69.8-21.4 124.2-23.8 54.6-2.4 72-3 211-3s156.4 0.6 211 3c54.4 2.4 91.8 11.2 124.2 23.8 33.6 13 62.2 30.6 90.6 59s46 57 59 90.6c12.6 32.6 21.4 69.8 23.8 124.2 2.4 54.6 3 72 3 211s-0.6 156.4-3 211c-2.4 54.4-11.2 91.8-23.8 124.2-12.6 34-30 62.6-58.6 91-28.4 28.4-57 46-90.6 59-32.6 12.6-69.8 21.4-124.2 23.8-54.8 2.6-72.2 3.2-211.2 3.2v0zM512 711c-145.2 0-263-117.8-263-263s117.8-263 263-263 263 117.8 263 263c0 145.2-117.8 263-263 263zM512 277.4c-94.2 0-170.6 76.4-170.6 170.6s76.4 170.6 170.6 170.6c94.2 0 170.6-76.4 170.6-170.6s-76.4-170.6-170.6-170.6zM846.8 721.4c0-33.91-27.49-61.4-61.4-61.4s-61.4 27.49-61.4 61.4c0 33.91 27.49 61.4 61.4 61.4s61.4-27.49 61.4-61.4z" glyph-name="icon-instagram" unicode=""/>
   <glyph d="M873 811.2c-95.8 96-223.2 148.8-359 148.8-279.6 0-507.2-227.6-507.2-507.4 0-89.4 23.4-176.8 67.8-253.6l-72-263 269 70.6c74.2-40.4 157.6-61.8 242.4-61.8h0.2c0 0 0 0 0 0 279.6 0 507.4 227.6 507.4 507.4 0 135.6-52.8 263-148.6 359zM514.2 30.4v0c-75.8 0-150 20.4-214.8 58.8l-15.4 9.2-159.6-41.8 42.6 155.6-10 16c-42.4 67-64.6 144.6-64.6 224.4 0 232.6 189.2 421.8 422 421.8 112.6 0 218.6-44 298.2-123.6 79.6-79.8 123.4-185.6 123.4-298.4-0.2-232.8-189.4-422-421.8-422zM745.4 346.4c-12.6 6.4-75 37-86.6 41.2s-20 6.4-28.6-6.4c-8.4-12.6-32.8-41.2-40.2-49.8-7.4-8.4-14.8-9.6-27.4-3.2s-53.6 19.8-102 63c-37.6 33.6-63.2 75.2-70.6 87.8s-0.8 19.6 5.6 25.8c5.8 5.6 12.6 14.8 19 22.2s8.4 12.6 12.6 21.2c4.2 8.4 2.2 15.8-1 22.2s-28.6 68.8-39 94.2c-10.2 24.8-20.8 21.4-28.6 21.8-7.4 0.4-15.8 0.4-24.2 0.4s-22.2-3.2-33.8-15.8c-11.6-12.6-44.4-43.4-44.4-105.8s45.4-122.6 51.8-131.2c6.4-8.4 89.4-136.6 216.6-191.4 30.2-13 53.8-20.8 72.2-26.8 30.4-9.6 58-8.2 79.8-5 24.4 3.6 75 30.6 85.6 60.2s10.6 55 7.4 60.2c-3 5.6-11.4 8.8-24.2 15.2z" glyph-name="icon-whatsapp" unicode=""/>
   <glyph d="M1024 733.6c-37.6-16.8-78.2-28-120.6-33 43.4 26 76.6 67.2 92.4 116.2-40.6-24-85.6-41.6-133.4-51-38.4 40.8-93 66.2-153.4 66.2-116 0-210-94-210-210 0-16.4 1.8-32.4 5.4-47.8-174.6 8.8-329.4 92.4-433 219.6-18-31-28.4-67.2-28.4-105.6 0-72.8 37-137.2 93.4-174.8-34.4 1-66.8 10.6-95.2 26.2 0-0.8 0-1.8 0-2.6 0-101.8 72.4-186.8 168.6-206-17.6-4.8-36.2-7.4-55.4-7.4-13.6 0-26.6 1.4-39.6 3.8 26.8-83.4 104.4-144.2 196.2-146-72-56.4-162.4-90-261-90-17 0-33.6 1-50.2 3 93.2-59.8 203.6-94.4 322.2-94.4 386.4 0 597.8 320.2 597.8 597.8 0 9.2-0.2 18.2-0.6 27.2 41 29.4 76.6 66.4 104.8 108.6z" glyph-name="twitter" unicode=""/>
   <glyph d="M425.6 922.6c-1.6 1-3.4 1.8-5 2.6-1.8-0.4-3.4-0.6-5.2-1l10.2-1.6zM36.8 539c-0.4-1.8-0.6-3.6-0.8-5.2 1-1.6 1.6-3.2 2.6-4.8l-1.8 10zM986.8 357.4c0.4 1.8 0.6 3.6 1 5.4-1 1.6-1.6 3.2-2.6 4.8l1.6-10.2zM592-23c1.6-1 3.4-1.8 5-2.6 1.8 0.4 3.6 0.6 5.4 0.8l-10.4 1.8zM987.8 362.8c-0.4-1.8-0.6-3.6-1-5.4l-1.8 10.4c1-1.8 1.8-3.4 2.8-5 5.2 28.8 8 58.2 8 87.6 0 65.2-12.8 128.6-38 188.2-24.4 57.6-59.2 109.4-103.6 153.8s-96.2 79.2-153.6 103.6c-59.6 25.2-123 38-188.2 38-30.8 0-61.6-2.8-91.6-8.6 0 0-0.2 0-0.2 0 1.6-0.8 3.4-1.6 5-2.6l-10.2 1.6c1.8 0.4 3.4 0.6 5.2 1-41.2 21.8-87.4 33.6-134.2 33.6-76.4 0-148.4-29.8-202.4-83.8s-83.8-126-83.8-202.4c0-48.6 12.6-96.6 36-138.8 0.4 1.8 0.6 3.6 0.8 5.2l1.8-10.2c-1 1.6-1.8 3.2-2.6 4.8-4.8-27.4-7.2-55.4-7.2-83.4 0-65.2 12.8-128.6 38-188.2 24.4-57.6 59.2-109.2 103.6-153.6s96.2-79.2 153.8-103.6c59.6-25.2 123-38 188.2-38 28.4 0 56.8 2.6 84.6 7.6-1.6 1-3.2 1.8-5 2.6l10.4-1.8c-1.8-0.4-3.6-0.6-5.4-0.8 42.8-24.2 91.4-37.2 140.8-37.2 76.4 0 148.4 29.8 202.4 83.8s83.8 126 83.8 202.4c-0.2 48.6-12.8 96.6-36.4 139.2zM514.2 154.2c-171.8 0-248.6 84.4-248.6 147.8 0 32.4 24 55.2 57 55.2 73.6 0 54.4-105.6 191.6-105.6 70.2 0 109 38.2 109 77.2 0 23.4-11.6 49.4-57.8 60.8l-152.8 38.2c-123 30.8-145.4 97.4-145.4 160 0 129.8 122.2 178.6 237 178.6 105.8 0 230.4-58.4 230.4-136.4 0-33.4-29-52.8-62-52.8-62.8 0-51.2 86.8-177.6 86.8-62.8 0-97.4-28.4-97.4-69s49.6-53.6 92.6-63.4l113.2-25.2c123.8-27.6 155.2-100 155.2-168 0-105.4-81-184.2-244.4-184.2z" glyph-name="skype" unicode=""/>
  </font>
</defs>
</svg>
